Details for this torrent 


Type SE
Warning! Use a VPN When Downloading Torrents!
Your ISP is tracking your torrent activity Including your IP Address and your Location!
We strongly recommend using ExpressVPN to anonymize your torrenting. 30 Day Money Back Guarantee!
HIDE MY IP
Beyonce - Lemonade WEBRip 1080p [iBooM] [P2PDL]
Type:
Video > Music videos
Files:
2
Size:
3.18 GiB (3413251994 Bytes)
Uploaded:
2017-01-09 17:11:48 GMT
By:
Vitamin_X VIP
Seeders:
25
Leechers:
3
Comments
0  

Info Hash:
201112FB34D40F6CDD1D8D044FC07F390C279188







(Problems with magnets links are fixed by upgrading your torrent client!)
_______ Visit us at our Private Music Bittorrent Community ________    
https://iboom.pm  _____________________________  https://iboom.pm 
https://ititli.com/qRsGeneralFormat                                   : MPEG-4Format profile                           : Base MediaFile size                                : 3.18 GiBDuration                                 : 1h 5mnOverall bit rate                         : 6 962 KbpsWriting application                      : Lavf57.25.100VideoID                                       : 1Format                                   : AVCFormat/Info                              : Advanced Video CodecFormat profile                           : [email protected]Format settings, CABAC                   : YesFormat settings, ReFrames                : 8 framesCodec ID                                 : avc1Codec ID/Info                            : Advanced Video CodingDuration                                 : 1h 5mnBit rate                                 : 6 637 KbpsWidth                                    : 1 920 pixelsHeight                                   : 1 080 pixelsDisplay aspect ratio                     : 16:9Frame rate mode                          : ConstantFrame rate                               : 23.976 (24000/1001) fpsBit depth                                : 8 bitsScan type                                : ProgressiveBits/(Pixel*Frame)                       : 0.133Stream size                              : 3.03 GiB (95%)Writing library                          : x264 core 148AudioID                                       : 2Format                                   : AACFormat/Info                              : Advanced Audio CodecFormat profile                           : LCCodec ID                                 : 40Duration                                 : 1h 5mnDuration_LastFrame                       : 36msBit rate mode                            : ConstantBit rate                                 : 320 KbpsChannel(s)                               : 2 channelsChannel positions                        : Front: L RSampling rate                            : 48.0 KHzFrame rate                               : 46.875 fps (1024 spf)Compression mode                         : LossyStream size                              : 150 MiB (5%)Language                                 : EnglishDefault                                  : Yes 
https://ititli.com/qRG 
https://ititli.com/qRH 
https://ititli.com/qRM 
https://ititli.com/qRU 
https://ititli.com/qRh




Type SE
Warning! Use a VPN When Downloading Torrents!
Your ISP is tracking your torrent activity Including your IP Address and your Location!
We strongly recommend using ExpressVPN to anonymize your torrenting. 30 Day Money Back Guarantee!
HIDE MY IP

Bitcoin (BTC Only) : 1z8Tep4BNS79W3kYH8CHA8tWj6nuHYcCM
TRON (TRX Only) : 0x705c127743410c23f69e3f56ac0a654879181c41

The Pirate bay proxy List
Pirate bay proxy list